Cowboys and Aliens (2011)

[quote]General
Complete name: Cowboys.And.Aliens.2011.PPVRIP.avi
Format : AVI
Format/Info: Audio Video Interleave
File size: 1.10 GiB
Duration : 1h 58mn
Overall bit rate : 1 334 Kbps
Writing library: VirtualDub build 32839/release


>>Enlace para Cowboys and Aliens (2011) 1 Link<<

Video
ID : 0
Format : MPEG-4 Visual
Format profile : Advanced Simple@L5
Format settings, BVOP: 1
Format settings, QPel: No
Format settings, GMC : No warppoints
Format settings, Matrix: Default (MPEG)
Muxing mode: Packed bitstream
Codec ID : XVID
Codec ID/Hint: XviD
Duration : 1h 58mn
Bit rate : 1 197 Kbps
Width: 640 pixels
Height : 480 pixels
Display aspect ratio : 4:3
Frame rate : 29.970 fps
Color space: YUV
Chroma subsampling : 4:2:0
Bit depth: 8 bits
Scan type: Progressive
Compression mode : Lossy
Bits/(Pixel*Frame) : 0.130
Stream size: 1 011 MiB (90%)
Writing library: XviD 64

Audio
ID : 1
Format : MPEG Audio
Format version : Version 1
Format profile : Layer 3
Mode : Joint stereo
Mode extension : MS Stereo
Codec ID : 55
Codec ID/Hint: MP3
Duration : 1h 58mn
Bit rate mode: Constant
Bit rate : 128 Kbps
Channel(s) : 2 channels
Sampling rate: 44.1 KHz
Compression mode : Lossy
Stream size: 108 MiB (10%)
Alignment: Split accross interleaves
Interleave, duration : 72 ms (2.16 video frames)
Interleave, preload duration : 504 ms
Writing library: LAME3.98.2[/quote]

 

http://www.wupload.com/file/400622285/warez-serbia.com_C.a.A.2011.avi
http://www.filesonic.com/file/2550765171/warez-serbia.com_C.a.A.2011.avi
http://www.filejungle.com/f/BNXxxY/warez-serbia.com_C.a.A.2011.avi

>>Enlace para Cowboys and Aliens (2011) 1 Link<<

Cowboys and Aliens (2011) 1 link Mega, Full HD 1080P 720P Buena Calidad, Taringa, 1 Link Descargar, Gratis, Torrent, Identi